Pain & Gain (2013) - Akcija - Strani Filmovi - Download - Tvistersajt-Filmovi online sa prevodom
Internet-cafe: Filmovi online sa prevodom - Internet-Cafe  
Internet-cafe: Filmovi online sa prevodom




Marketing

Porukice

Pratite nas preko Facebooka

Statika
Da li ste zaljubljeni ?
Total of answers: 1321

Novo na forumu
  • Popravi sledece

  • PRIJAVITE SADRŽAJ KOJI NE RADI

  • Preporučite film

  • Scene iz filmova koje nikad necete zaboraviti

  • Posljednji film koji sam gledao-la je?

  • Slike zgodnih zena po vašem ukusu

  • Pomoc za Download slike

  • Shakira

  • EMINEM

  • Muzika


  • Onlajn Korisnici
    Ukupno 13
    Gostiju 13
    Korisnika 0


    Main » Files » Strani Filmovi » Akcija

    Pain & Gain (2013)
    [ · Download from mirror (1.55 GB) ] 2013-05-03, 02.24
    Encoder ..........: TommieCook                                                  
    Video Codec.......: AVI.X264
    Video Bitrate.....: 1500 Kbps                            
    Audio Codec.......: MP3
    Audio Bitrate.....: 320 Kbps/2 Channels                    
    Resolution........: 720X280
    Runtime...........: 2h 0min                        
    Release Date......: N/A
    Theatre Date......: 26 April 2013 (USA)
    Language..........: English
    Subtitles.........: N/A
    IMDB Rating.......: 7.1/10
    IMDb URL..........: http://www.imdb.com/title/tt1980209/
    _______________________________________________________________________________

    General

    Complete name                            : C:\\Pain.An.Gain.2013.Cam.Read.Info.X264.26K.avi
    Format                                   : AVI
    Format/Info                              : Audio Video Interleave
    File size                                : 1.54 GiB
    Duration                                 : 2h 0mn
    Overall bit rate                         : 1 833 Kbps
    Writing library                          : VirtualDub build 32842/release



    ________________________________________________________________________________

    Video

    Video
    ID                                       : 0
    Format                                   : AVC
    Format/Info                              : Advanced Video Codec
    Format profile                           : High@L4.1
    Format settings, CABAC                   : Yes
    Format settings, ReFrames                : 4 frames
    Codec ID                                 : X264
    Codec ID/Info                            : XiWave GNU GPL x264 MPEG-4
    Duration                                 : 2h 0mn
    Bit rate                                 : 1 500 Kbps
    Width                                    : 720 pixels
    Height                                   : 280 pixels
    Display aspect ratio                     : 2.571
    Frame rate                               : 25.000 fps
    Color space                              : YUV
    Chroma subsampling                       : 4:2:0
    Bit depth                                : 8 bits
    Scan type                                : Progressive
    Bits/(Pixel*Frame)                       : 0.298
    Stream size                              : 1.27 GiB (82%)
    Writing library                          : x264 core 130 r2274bm c832fe9
    Encoding settings                        : cabac=1 / ref=3 / deblock=1:-2:-2 / analyse=0x3:0x113 / me=hex / subme=7 / psy=1 / psy_rd=1.00:0.25 / mixed_ref=1 / me_range=16 / chroma_me=1 / trellis=1 / 8x8dct=1 / cqm=0 / deadzone=6,6 / fast_pskip=1 / chroma_qp_offset=-4 / threads=12 / lookahead_threads=2 / sliced_threads=0 / nr=0 / decimate=0 / interlaced=0 / bluray_compat=0 / constrained_intra=0 / bframes=3 / b_pyramid=2 / b_adapt=1 / b_bias=0 / direct=1 / weightb=1 / open_gop=0 / weightp=2 / keyint=250 / keyint_min=25 / scenecut=40 / intra_refresh=0 / rc_lookahead=40 / rc=abr / mbtree=1 / bitrate=1500 / ratetol=1.0 / qcomp=0.80 / qpmin=0 / qpmax=69 / qpstep=4 / ip_ratio=1.10 / aq=1:0.50
    _________________________________________________________________________________

    Audio

    Audio
    ID                                       : 1
    Format                                   : MPEG Audio
    Codec ID                                 : 55
    Codec ID/Hint                            : MP3
    Duration                                 : 2h 0mn
    Bit rate                                 : 320 Kbps
    Channel(s)                               : 2 channels
    Sampling rate                            : 48.0 KHz
    Compression mode                         : Lossy
    Stream size                              : 276 MiB (17%)
    Alignment                                : Split accross interleaves
    Interleave, duration                     : 40 ms (1.00 video frame)
    Interleave, preload duration             : 500 ms

    _________________________________________________________________________________


    SOURCES:

    VIDEO: Thanks Bro
    AUDIO: Thanks Bro

    _________________________________________________________________________________

    Plot:
    A trio of bodybuilders in Florida get caught up in an extortion ring and a kidnapping scheme that goes terribly wrong.





    Category: Akcija | Added by: Administrator
    Views: 7685 | Downloads: 440 | Rating: 2.0/4
    Only registered users can add comments.
    [ Sign Up | Login ]
    IT Magazin | ITmag.rs

    Create a website for free